<?xml version="1.0" standalone="no"?>
<!DOCTYPE svg PUBLIC "-//W3C//DTD SVG 1.1//EN" "http://www.w3.org/Graphics/SVG/1.1/DTD/svg11.dtd">
<svg xmlns="http://www.w3.org/2000/svg">
<defs >
<font id="AlegreyaSansSC" horiz-adv-x="498" ><font-face
    font-family="Alegreya Sans SC"
    units-per-em="1000"
    panose-1="0 0 5 0 0 0 0 0 0 0"
    ascent="900"
    descent="-300"
    alphabetic="0" />
<glyph unicode=" " glyph-name="space" horiz-adv-x="165" />
<glyph unicode="!" glyph-name="exclam" horiz-adv-x="256" d="M154 218L107 213L98 222V647L106 657L167 660L176 650L154 218ZM140 88T151 76T163 43Q163 21 151 8T117 -5Q72 -5 72 41Q72 62 85 75T120 88Q140 88 151 76Z" />
<glyph unicode="&quot;" glyph-name="quotedbl" horiz-adv-x="280" d="M100 449L59 443L52 450L57 634L118 639L124 632L100 449ZM214 449L173 443L167 450L171 634L232 639L238 632L214 449Z" />
<glyph unicode="#" glyph-name="numbersign" horiz-adv-x="516" d="M349 249H455L460 243L456 200H338L300 32H254L249 39L285 200H175L138 32H91L86 39L122 200H26L20 205L24 249H133L159 365H61L55 371L59 414H170L206 574H252L257 566L223 414H332L368 574H414L420
566L386 414H490L496 408L491 365H375L349 249ZM212 365L186 249H296L322 365H212Z" />
<glyph unicode="$" glyph-name="dollar" horiz-adv-x="434" d="M375 85T334 45T223 -3L213 -129H174L166 -122L175 -4Q105 -1 48 28L56 98L65 101Q110 57 179 48L194 226Q152 244 125 260T80 301T61 363Q61 418 103 456T216 500L227 642H266L275 634L264 500Q314
495 360 477L348 413L337 410Q300 438 260 446L246 274Q307 248 341 219T375 139Q375 85 334 45ZM126 346T145 328T200 294L212 448Q173 444 150 421T126 371Q126 346 145 328ZM264 55T287 77T310 128Q310 154 292 171T240 205L227 48Q264 55 287 77Z" />
<glyph unicode="%" glyph-name="percent" horiz-adv-x="824" d="M650 644L178 -91L143 -71L138 -59L609 678L644 658L650 644ZM260 645T296 601T333 474Q333 385 295 339T182 292Q114 292 77 336T40 464Q40 552 79 598T192 645Q260 645 296 601ZM96 587T96 469Q96
347 187 347Q278 347 278 465Q278 587 186 587Q96 587 96 469ZM710 349T746 305T783 178Q783 89 745 43T632 -4Q564 -4 527 40T490 168Q490 256 529 302T642 349Q710 349 746 305ZM546 291T546 173Q546 51 637 51Q728 51 728 169Q728 291 636 291Q546 291 546 173Z"
/>
<glyph unicode="&amp;" glyph-name="ampersand" horiz-adv-x="768" d="M803 272T779 254T716 232Q689 232 605 248Q600 172 561 113T456 22T307 -11Q184 -11 114 60T43 254Q43 328 69 385T141 473T243 505Q296 505 326 480T357 414Q357 398 353 385Q447 454 519
538T631 711H638Q661 688 670 656Q632 571 547 481T348 314T119 195Q135 126 184 88T313 49Q379 49 432 75T515 149T546 260Q506 267 488 267Q436 267 406 205L396 204L381 248Q400 285 425 303T488 326Q507 326 600 309Q686 291 715 291Q773 291 797 352L807 353L823
310Q803 272 779 254ZM183 450T148 399T112 264V252Q183 278 261 324Q304 354 304 397Q304 424 287 437T241 450Q183 450 148 399Z" />
<glyph unicode="&apos;" glyph-name="quotesingle" horiz-adv-x="166" d="M100 449L59 443L52 450L57 634L118 639L124 632L100 449Z" />
<glyph unicode="(" glyph-name="parenleft" horiz-adv-x="288" d="M283 628Q210 570 179 485T147 257Q148 118 179 34T283 -107V-115L254 -141H247Q159 -77 121 14T82 256Q83 411 121 504T247 662H254L283 636V628Z" />
<glyph unicode=")" glyph-name="parenright" horiz-adv-x="288" d="M5 -108Q78 -50 109 35T141 263Q140 402 109 486T5 627V635L34 661H41Q129 597 167 506T206 264Q205 109 167 16T41 -142H34L5 -116V-108Z" />
<glyph unicode="*" glyph-name="asterisk" horiz-adv-x="374" d="M203 607L169 603L164 610L162 724Q190 733 222 733L225 727L203 607ZM144 562L137 558L36 592Q36 631 44 653L51 655L149 595L144 562ZM339 601T346 579L341 574L230 558L215 588L219 597L319
633Q339 601 346 579ZM287 447Q274 424 246 403L238 404L192 517L216 539L226 537L287 447ZM172 513L115 420Q96 426 60 448V454L143 538L173 522L172 513Z" />
<glyph unicode="+" glyph-name="plus" horiz-adv-x="480" d="M268 293H443L449 287L444 237H268V60L218 56L212 62V237H37L31 243L36 293H212V470L262 475L268 468V293Z" />
<glyph unicode="," glyph-name="comma" horiz-adv-x="229" d="M169 61T169 20Q169 -45 75 -114L48 -89V-82Q103 -39 103 6Q103 33 72 53V61Q100 80 127 87Q169 61 169 20Z" />
<glyph unicode="-" glyph-name="hyphen" horiz-adv-x="307" d="M278 243L37 208L29 216V266L271 300L278 293V243Z" />
<glyph unicode="." glyph-name="period" horiz-adv-x="229" d="M136 88T148 76T160 43Q160 21 148 8T113 -5Q69 -5 69 41Q69 62 81 75T116 88Q136 88 148 76Z" />
<glyph unicode="/" glyph-name="slash" horiz-adv-x="287" d="M83 -113H28L22 -105L227 678H282L288 669L83 -113Z" />
<glyph unicode="0" glyph-name="zero" horiz-adv-x="528" d="M371 504T426 439T482 252Q482 128 424 61T260 -7Q158 -7 103 58T47 242Q47 368 105 436T270 504Q371 504 426 439ZM110 431T110 248Q110 63 264 63Q340 63 379 108T419 243Q419 336 380 383T263 431Q110
431 110 248Z" />
<glyph unicode="1" glyph-name="one" horiz-adv-x="344" d="M220 207L224 0H144L149 197L148 411L19 375L11 379V442L213 502L225 494L220 207Z" />
<glyph unicode="2" glyph-name="two" horiz-adv-x="455" d="M290 502T328 472T367 391Q367 351 339 302T250 181L149 66L151 62H336L420 68L426 63L415 -4L313 0H89L52 -2L47 2V52L186 203Q240 263 265 302T290 372Q290 399 270 416T214 434Q178 434 143 416T78
366H68L55 427Q138 502 230 502Q290 502 328 472Z" />
<glyph unicode="3" glyph-name="three" horiz-adv-x="412" d="M259 503T301 468T343 376Q343 333 318 293T243 228V224Q365 195 365 91Q365 36 337 -7T256 -73T137 -97Q91 -97 39 -88L34 -20L40 -15Q87 -35 142 -35Q208 -35 249 -4T290 81Q290 128 257 155T161
184H102L97 190L99 245L143 246Q170 246 198 261T244 302T263 359Q263 395 239 416T176 437Q119 437 52 378H43L31 441Q106 503 191 503Q259 503 301 468Z" />
<glyph unicode="4" glyph-name="four" horiz-adv-x="481" d="M350 77L353 -86L348 -92L288 -97L283 -91L285 77H98L32 75L27 83V134L278 498H351L349 139H443L449 131L444 75L352 77H350ZM286 402H279L97 139H286V402Z" />
<glyph unicode="5" glyph-name="five" horiz-adv-x="418" d="M367 433L361 427L288 433H140L136 277L199 264Q292 244 331 206T370 106Q370 46 340 0T255 -72T131 -98Q89 -98 37 -88L31 -18L38 -11Q94 -35 147 -35Q215 -35 255 0T295 93Q295 138 265 165T165 205L80
221L73 228L78 489L91 500L144 498H279L371 502L375 496L367 433Z" />
<glyph unicode="6" glyph-name="six" horiz-adv-x="470" d="M342 349T384 303T427 180Q427 96 375 44T232 -8Q140 -8 93 49T46 211Q46 338 123 438T342 594H347L409 558V550Q289 508 222 450T131 312L137 305Q197 349 267 349Q342 349 384 303ZM294 47T325 78T356
169Q356 227 327 258T245 290Q179 290 119 238L118 211Q118 47 238 47Q294 47 325 78Z" />
<glyph unicode="7" glyph-name="seven" horiz-adv-x="417" d="M346 498L388 500L389 441L195 17L150 -102L86 -84L81 -71L314 432H103L27 424L22 433L27 501L117 498H346Z" />
<glyph unicode="8" glyph-name="eight" horiz-adv-x="474" d="M318 592T359 555T401 452Q401 401 375 368T304 309V304Q358 278 388 247T419 158Q419 83 366 38T225 -7Q143 -7 96 34T48 143Q48 199 80 234T165 296V301Q71 350 71 439Q71 510 119 551T245 592Q318
592 359 555ZM194 534T166 509T138 441Q138 398 164 375T241 331Q286 350 311 375T337 445Q337 487 312 510T241 534Q194 534 166 509ZM176 253T146 226T116 151Q116 106 147 78T232 50Q287 50 319 78T352 153Q352 185 335 206T295 240T227 271Q176 253 146 226Z"
/>
<glyph unicode="9" glyph-name="nine" horiz-adv-x="470" d="M128 150T86 196T43 319Q43 403 95 455T238 507Q330 507 377 450T424 288Q424 161 347 61T128 -95H123L61 -59V-51Q181 -9 248 49T339 187L333 194Q273 150 203 150Q128 150 86 196ZM176 452T145 421T114
330Q114 272 143 241T225 209Q291 209 351 261L352 288Q352 452 232 452Q176 452 145 421Z" />
<glyph unicode=":" glyph-name="colon" horiz-adv-x="229" d="M388 88T400 76T412 43Q412 21 400 8T365 -5Q321 -5 321 41Q321 62 333 75T368 88Q388 88 400 76ZM132 357T144 345T156 312Q156 290 144 277T109 264Q65 264 65 310Q65 331 77 344T112 357Q132 357 144 345Z" />
<glyph unicode=";" glyph-name="semicolon" horiz-adv-x="229" d="M421 61T421 20Q421 -45 327 -114L300 -89V-82Q355 -39 355 6Q355 33 324 53V61Q352 80 379 87Q421 61 421 20ZM132 357T144 345T156 312Q156 290 144 277T109 264Q65 264 65 310Q65 331 77 344T112
357Q132 357 144 345Z" />
<glyph unicode="&lt;" glyph-name="less" horiz-adv-x="480" d="M36 297V232L419 80L428 85L440 131L98 263V269L438 410L442 417L424 463L43 306L36 297Z" />
<glyph unicode="=" glyph-name="equal" horiz-adv-x="480" d="M444 319H37L31 325L36 375H443L449 369L444 319ZM444 410H37L31 416L36 466H443L449 460L444 410Z" />
<glyph unicode="&gt;" glyph-name="greater" horiz-adv-x="480" d="M444 297V232L61 80L52 85L40 131L382 263V269L42 410L38 417L56 463L437 306L444 297Z" />
<glyph unicode="?" glyph-name="question" horiz-adv-x="331" d="M205 653T270 613T335 504Q335 422 251 370L168 316L166 312L172 216L116 209L109 216L101 331L106 341L202 398Q263 434 263 492Q263 592 66 604L60 612L75 656L85 661Q205 653 270 613ZM167 88T179
76T191 43Q191 21 179 8T144 -5Q100 -5 100 41Q100 62 112 75T147 88Q167 88 179 76Z" />
<glyph unicode="@" glyph-name="at" horiz-adv-x="825" d="M794 158T706 80T455 -4L484 203H474Q397 71 313 -8H298Q222 37 222 151Q222 223 249 291T330 406T460 465H465L529 442L575 465L585 461L535 110L533 55Q631 67 685 130T739 296Q739 375 705 435T606
528T456 561Q348 561 266 515T137 387T91 198Q91 90 138 12T272 -108T475 -150L477 -158L453 -198Q328 -197 234 -150T88 -17T36 187Q36 311 88 408T236 559T457 614Q558 614 634 575T752 465T794 299Q794 158 706 80ZM332 75T362 108T430 203T505 351L506 357L508
382L445 404Q397 404 362 373T308 288T289 170Q289 119 298 97T320 75Q332 75 362 108Z" />
<glyph unicode="A" glyph-name="A" horiz-adv-x="578" d="M474 0L459 64L423 174L279 177L149 174L110 68L94 0H14L249 641H342L556 0H474ZM297 558H290L174 242L286 240L401 242L297 558Z" />
<glyph unicode="B" glyph-name="B" horiz-adv-x="537" d="M498 307T498 179Q498 -4 235 -4Q147 -4 94 0H93L98 193L93 641L271 642Q361 642 409 602T458 486Q458 432 433 393T362 334Q498 307 498 179ZM376 529T348 552T255 576H174L172 361L282 358Q376 380 376
477Q376 529 348 552ZM329 63T373 94T417 183Q417 281 294 295L171 294L170 200L173 66Q212 63 247 63Q329 63 373 94Z" />
<glyph unicode="C" glyph-name="C" horiz-adv-x="520" d="M423 646T497 598L481 525L472 523Q405 579 318 579Q223 579 172 514T121 322Q121 195 172 128T316 61Q408 61 483 122L493 117L486 41Q399 -7 309 -7Q180 -7 109 76T38 315Q38 474 112 560T322 646Q423
646 497 598Z" />
<glyph unicode="D" glyph-name="D" horiz-adv-x="646" d="M462 645T535 567T608 343Q608 174 529 84T302 -6Q204 -6 94 0H93L98 193L93 641H94L325 645Q462 645 535 567ZM417 61T471 127T526 326Q526 578 319 578Q256 578 174 574L170 200L173 67Q243 61 315 61Q417
61 471 127Z" />
<glyph unicode="E" glyph-name="E" horiz-adv-x="482" d="M453 0H93L98 193L93 641H454L458 633L452 571L301 574L174 572L172 362L292 360L398 363L404 356L397 294L285 296L171 295L170 200L173 67L300 66L454 70L459 62L453 0Z" />
<glyph unicode="F" glyph-name="F" horiz-adv-x="434" d="M172 349L280 347L384 350L390 342L383 281L272 284L171 283L170 200L174 0H93L98 193L93 641H434L440 633L433 569L286 574L174 572L172 349Z" />
<glyph unicode="G" glyph-name="G" horiz-adv-x="600" d="M451 646T538 601L522 525L512 523Q464 553 424 566T338 579Q121 579 121 311Q121 182 171 122T328 61Q378 61 458 85L460 160L459 251L534 257L532 171L536 31Q414 -7 324 -7Q181 -7 110 74T38 308Q38
473 119 559T350 646Q451 646 538 601Z" />
<glyph unicode="H" glyph-name="H" horiz-adv-x="683" d="M589 0H508L514 193L513 289L333 292L171 289L170 200L174 0H93L98 193L93 641H175L172 359L340 356L512 359L508 641H590L586 200L589 0Z" />
<glyph unicode="I" glyph-name="I" horiz-adv-x="268" d="M174 0H93L98 193L93 641H175L170 200L174 0Z" />
<glyph unicode="J" glyph-name="J" horiz-adv-x="310" d="M215 118Q215 42 177 -7T45 -102L14 -57V-47Q83 -10 112 26T141 117V204L137 576L14 575L6 582L11 641H217L213 212L215 118Z" />
<glyph unicode="K" glyph-name="K" horiz-adv-x="546" d="M173 0H92L97 193L92 641H174L169 200L173 0ZM406 163T546 17L545 7Q514 -2 469 -9L460 -4Q298 180 184 335V341L398 585L437 641H528L269 340Q406 163 546 17Z" />
<glyph unicode="L" glyph-name="L" horiz-adv-x="416" d="M406 0H90L95 193L90 641H172L167 200L170 67H407L413 60L406 0Z" />
<glyph unicode="M" glyph-name="M" horiz-adv-x="789" d="M656 0L641 195L607 514H600L422 74H356L187 514H179L145 201L128 0H60L127 641H218L251 543L390 178H396L542 549L575 641H665L728 0H656Z" />
<glyph unicode="N" glyph-name="N" horiz-adv-x="683" d="M587 0H503L172 513H166L165 211L168 0H93L98 190L95 641H179L509 128H516L515 637L591 643L585 188L587 0Z" />
<glyph unicode="O" glyph-name="O" horiz-adv-x="635" d="M457 647T527 566T598 333Q598 170 523 81T310 -8Q180 -8 109 76T38 315Q38 475 112 561T326 647Q457 647 527 566ZM120 581T120 325Q120 59 315 59Q515 59 515 319Q515 452 467 516T319 581Q120 581 120 325Z" />
<glyph unicode="P" glyph-name="P" horiz-adv-x="520" d="M383 642T434 594T485 454Q485 347 422 286T246 225H170V200L174 0H93L98 193L93 641L289 642Q383 642 434 594ZM403 310T403 447Q403 571 271 576L174 573L171 292L276 290Q403 310 403 447Z" />
<glyph unicode="Q" glyph-name="Q" horiz-adv-x="639" d="M715 -172T696 -189L689 -192Q488 -140 336 -7L312 -8Q180 -8 109 76T38 315Q38 475 112 561T326 647Q457 647 527 566T598 330Q598 201 549 118T409 6Q553 -95 730 -128L733 -138Q715 -172 696 -189ZM120
59T317 59Q515 59 515 323Q515 581 318 581Q218 581 169 517T120 322Q120 59 317 59Z" />
<glyph unicode="R" glyph-name="R" horiz-adv-x="555" d="M420 150T520 19L519 9Q483 -5 445 -9L434 -2Q352 121 287 238H170V200L174 0H93L98 193L93 641L289 642Q383 642 434 595T486 459Q486 393 452 341T354 259Q420 150 520 19ZM291 303Q403 335 403 452Q403
571 271 576L174 573L171 306L291 303Z" />
<glyph unicode="S" glyph-name="S" horiz-adv-x="472" d="M336 646T410 616L397 539L383 535Q323 581 257 581Q220 581 193 566T151 527T136 477Q136 450 152 430T194 394T262 358Q316 333 349 312T405 257T429 177Q429 127 402 85T326 18T214 -7Q122 -7 42 38L52
120L63 125Q98 91 140 75T222 58Q260 58 289 73T334 113T350 166Q350 208 318 233T221 289Q168 315 136 335T81 388T58 468Q58 517 84 558T158 622T267 646Q336 646 410 616Z" />
<glyph unicode="T" glyph-name="T" horiz-adv-x="490" d="M463 571L351 577H286L283 200L286 0H205L211 193L206 577H141L27 571L22 579L28 641H463L469 633L463 571Z" />
<glyph unicode="U" glyph-name="U" horiz-adv-x="626" d="M552 243Q554 125 490 59T308 -7Q195 -7 135 56T76 234L77 321L76 641H155L152 244Q150 63 314 63Q480 63 478 234L474 641H554L553 315L552 243Z" />
<glyph unicode="V" glyph-name="V" horiz-adv-x="564" d="M229 0L15 641H97L112 576L275 81H281L461 572L477 641H557L322 0H229Z" />
<glyph unicode="W" glyph-name="W" horiz-adv-x="893" d="M572 0L447 372H440L308 0H225L21 641H101L112 579L268 89H275L413 479L359 641H441L456 572L614 89H620L794 575L809 641H885L655 0H572Z" />
<glyph unicode="X" glyph-name="X" horiz-adv-x="589" d="M560 0H463L435 52L287 271L134 47L108 0H23L240 324L31 641H128L154 590L292 385L431 591L457 641H544L341 334L560 0Z" />
<glyph unicode="Y" glyph-name="Y" horiz-adv-x="528" d="M295 0H214L220 187L219 230L15 641H101L114 605L254 317H262L415 603L430 641H515L293 230L292 187L295 0Z" />
<glyph unicode="Z" glyph-name="Z" horiz-adv-x="528" d="M127 65H393L488 72L492 66L485 -2L369 0H88L31 -3V56L391 575H144L48 568L43 574L49 642L437 641L486 642V582L127 65Z" />
<glyph unicode="[" glyph-name="bracketleft" horiz-adv-x="288" d="M282 603L163 592V-75L282 -86V-124L277 -129L98 -119L102 259L98 637L277 647L282 641V603Z" />
<glyph unicode="\" glyph-name="backslash" horiz-adv-x="287" d="M210 -113H265L271 -105L66 678H11L5 669L210 -113Z" />
<glyph unicode="]" glyph-name="bracketright" horiz-adv-x="288" d="M6 -86L125 -75V592L6 603V641L11 646L190 636L186 258L190 -120L11 -130L6 -124V-86Z" />
<glyph unicode="^" glyph-name="asciicircum" horiz-adv-x="424" d="M398 126L352 115L220 432H214L74 117L66 112L20 130L178 487L186 492H252L404 134L398 126Z" />
<glyph unicode="_" glyph-name="underscore" horiz-adv-x="450" d="M460 -141H-9L-15 -134L-10 -88H459L465 -94L460 -141Z" />
<glyph unicode="`" glyph-name="grave" horiz-adv-x="389" d="M93 654L95 646Q194 569 265 519L274 520L296 552Q198 632 132 697L123 696L93 654Z" />
<glyph unicode="a" glyph-name="a" horiz-adv-x="512" d="M403 0L391 54L365 128L246 129L140 128L113 58L99 0H25L217 498H303L478 0H403ZM261 425H255L164 189L252 188L344 189L261 425Z" />
<glyph unicode="b" glyph-name="b" horiz-adv-x="481" d="M435 237T435 141Q435 -3 215 -3Q150 -3 90 0L93 150L90 498L246 499Q321 499 362 468T404 378Q404 293 324 259Q435 237 435 141ZM325 406T301 423T224 440H163L162 286L251 283Q325 298 325 369Q325
406 301 423ZM358 54T358 143Q358 212 261 226L162 225L161 156L163 57Q194 54 224 54Q358 54 358 143Z" />
<glyph unicode="c" glyph-name="c" horiz-adv-x="461" d="M367 503T428 468L414 399L405 396Q352 441 276 441Q124 441 124 252Q124 157 163 107T276 57Q352 57 414 103L423 100L416 31Q348 -6 273 -6Q163 -6 104 59T45 246Q45 369 107 436T284 503Q367 503 428 468Z" />
<glyph unicode="d" glyph-name="d" horiz-adv-x="566" d="M399 502T459 441T520 266Q520 135 454 65T265 -5Q170 -5 90 0L93 150L90 498L285 502Q399 502 459 441ZM357 56T400 104T444 251Q444 439 279 439Q230 439 164 435L162 156L163 62Q229 56 277 56Q357
56 400 104Z" />
<glyph unicode="e" glyph-name="e" horiz-adv-x="435" d="M400 58L393 0H90L93 150L90 498H395L400 492L394 434L268 438L164 437L163 286L262 285L349 288L354 281L348 222L256 225L163 224L162 156L163 61L261 60L394 64L400 58Z" />
<glyph unicode="f" glyph-name="f" horiz-adv-x="387" d="M158 273L244 272L332 275L337 268L332 211L237 212L157 211V156L159 0H85L87 150L85 498H375L379 492L373 434L250 438L159 437L158 273Z" />
<glyph unicode="g" glyph-name="g" horiz-adv-x="526" d="M384 503T463 469L438 397H429Q392 421 361 430T294 440Q209 440 167 392T124 242Q124 144 163 101T287 57Q334 57 391 78V128L390 199L459 204V24Q358 -6 284 -6Q166 -6 106 57T45 239Q45 367 113 435T306
503Q384 503 463 469Z" />
<glyph unicode="h" glyph-name="h" horiz-adv-x="596" d="M506 0H432L435 150L434 218L163 217L162 156L164 0H90L93 150L90 498H165L163 284L298 283L434 284L432 498H507L504 156L506 0Z" />
<glyph unicode="i" glyph-name="i" horiz-adv-x="259" d="M164 0H90L93 150L90 498H165L162 156L164 0Z" />
<glyph unicode="j" glyph-name="j" horiz-adv-x="289" d="M194 165V93Q194 32 167 -7T69 -80L39 -41V-34Q86 -8 105 20T125 92V156L123 441L28 440L23 446L28 498H197L194 165Z" />
<glyph unicode="k" glyph-name="k" horiz-adv-x="490" d="M358 135T477 17L475 6Q444 -4 403 -9L391 -4Q263 140 170 260V266L342 454L375 498L464 499L252 265Q358 135 477 17ZM164 0H90L93 150L90 498H165L162 156L164 0Z" />
<glyph unicode="l" glyph-name="l" horiz-adv-x="377" d="M353 0H88L91 150L88 498H163L160 156L162 63H354L358 56L353 0Z" />
<glyph unicode="m" glyph-name="m" horiz-adv-x="683" d="M553 0L542 152L515 382H509L366 56H307L172 382H166L140 158L126 0H62L117 498H204L229 423L338 155H344L458 427L484 498H569L620 0H553Z" />
<glyph unicode="n" glyph-name="n" horiz-adv-x="596" d="M504 0H424L162 380H157L156 166L158 0H90L93 147L91 498H170L432 118H439L437 495L506 500L503 149L504 0Z" />
<glyph unicode="o" glyph-name="o" horiz-adv-x="557" d="M395 504T453 440T512 259Q512 132 450 63T271 -7Q163 -7 104 58T45 245Q45 369 108 436T286 504Q395 504 453 440ZM200 441T162 396T123 254Q123 150 161 103T277 56Q357 56 396 102T435 246Q435 347
397 394T279 441Q200 441 162 396Z" />
<glyph unicode="p" glyph-name="p" horiz-adv-x="466" d="M339 499T381 461T424 351Q424 267 371 220T223 172H162V156L164 0H90L93 150L90 498L260 499Q339 499 381 461ZM346 247T346 345Q346 435 240 440L164 439L163 232L247 230Q346 247 346 345Z" />
<glyph unicode="q" glyph-name="q" horiz-adv-x="560" d="M602 -135T586 -149L580 -151Q425 -110 296 -6Q288 -7 271 -7Q163 -7 104 58T45 245Q45 369 108 436T286 504Q395 504 453 440T512 259Q512 160 474 96T364 7Q483 -69 617 -95L620 -103Q602 -135 586 -149ZM123
150T161 103T277 56Q357 56 396 102T435 246Q435 347 397 394T279 441Q200 441 162 396T123 254Q123 150 161 103Z" />
<glyph unicode="r" glyph-name="r" horiz-adv-x="496" d="M380 108T454 18L453 8Q411 -5 384 -7L371 1Q295 116 256 182L162 181V156L164 0H90L93 150L90 498L260 499Q339 499 381 462T424 355Q424 304 397 264T319 201Q380 108 454 18ZM257 240Q346 265 346 349Q346
393 320 415T241 439L164 438L163 243L257 240Z" />
<glyph unicode="s" glyph-name="s" horiz-adv-x="425" d="M298 503T359 479L346 405L334 402Q281 445 229 445Q186 445 161 423T136 371Q136 342 160 324T236 284Q281 264 307 248T353 206T373 141Q373 102 352 69T291 15T194 -6Q116 -6 49 28L58 107L68 111Q96
83 133 68T203 52Q245 52 272 74T299 129Q299 159 275 177T198 219Q155 238 128 254T81 296T62 361Q62 401 83 433T144 484T237 503Q298 503 359 479Z" />
<glyph unicode="t" glyph-name="t" horiz-adv-x="437" d="M400 429L307 436H257L254 156L257 0H182L185 150L183 436H133L38 429L32 436L38 498H401L405 492L400 429Z" />
<glyph unicode="u" glyph-name="u" horiz-adv-x="549" d="M475 173Q476 88 424 41T273 -6Q176 -6 125 40T76 173L77 249L76 498H151L147 185Q145 58 276 58Q407 58 405 185L402 498H478L475 245V173Z" />
<glyph unicode="v" glyph-name="v" horiz-adv-x="500" d="M201 0L27 498H104L116 443L245 74H250L393 440L405 498H480L290 0H201Z" />
<glyph unicode="w" glyph-name="w" horiz-adv-x="768" d="M483 0L385 272H379L276 0H196L33 498H108L117 445L239 83H244L353 374L312 498H390L401 439L523 83H529L664 441L676 498H749L563 0H483Z" />
<glyph unicode="x" glyph-name="x" horiz-adv-x="520" d="M484 0H394L371 43L255 202L134 39L112 0H33L211 250L38 498H131L152 456L261 307L370 457L391 498H472L305 260L484 0Z" />
<glyph unicode="y" glyph-name="y" horiz-adv-x="473" d="M266 0H191L194 143V173L25 498H106L117 469L228 255H233L355 466L369 498H448L264 174L263 143L266 0Z" />
<glyph unicode="z" glyph-name="z" horiz-adv-x="470" d="M130 59H339L422 67L426 62L420 -2L317 0H91L40 -2V52L332 438H129L52 430L48 436L55 499L145 498H378L421 499V443L130 59Z" />
<glyph unicode="{" glyph-name="braceleft" horiz-adv-x="288" d="M243 655T273 648L277 641L269 598Q246 603 232 603Q170 603 170 530Q170 498 181 445Q191 387 191 366Q191 292 124 263V259Q191 230 191 157Q191 134 181 78Q170 23 170 -7Q170 -81 232 -81Q246
-81 269 -76L277 -119L273 -126Q248 -132 221 -132Q106 -132 106 -20Q106 5 117 78Q126 128 126 154Q126 227 45 240V281Q126 297 126 368Q126 393 117 443Q106 516 106 542Q106 655 221 655Q243 655 273 648Z" />
<glyph unicode="|" glyph-name="bar" horiz-adv-x="314" d="M187 288V-259L132 -262L125 -254V283L126 793L183 797L188 792L187 288Z" />
<glyph unicode="}" glyph-name="braceright" horiz-adv-x="288" d="M45 -133T15 -126L11 -119L19 -76Q42 -81 56 -81Q118 -81 118 -8Q118 24 107 77Q97 135 97 156Q97 230 164 259V263Q97 292 97 365Q97 388 107 444Q118 499 118 529Q118 603 56 603Q42 603 19
598L11 641L15 648Q40 654 67 654Q182 654 182 542Q182 517 171 444Q162 394 162 368Q162 295 243 282V241Q162 225 162 154Q162 129 171 79Q182 6 182 -20Q182 -133 67 -133Q45 -133 15 -126Z" />
<glyph unicode="~" glyph-name="asciitilde" horiz-adv-x="480" d="M139 257T129 250T96 221Q96 221 81 206H72L50 233V242L123 315L133 319Q158 316 231 294Q317 270 333 270Q343 270 354 278T379 300T401 321H409L431 294V285L358 211L348 209Q326 212 241 235Q163
257 149 257Q139 257 129 250Z" />
<glyph unicode="&#xa0;" glyph-name="nbspace" horiz-adv-x="165" />
<glyph unicode="&#xa1;" glyph-name="exclamdown" horiz-adv-x="256" d="M103 245L150 250L159 241V-184L151 -194L90 -197L81 -187L103 245ZM117 375T106 387T94 420Q94 442 106 455T140 468Q185 468 185 422Q185 401 172 388T137 375Q117 375 106 387Z" />
<glyph unicode="&#xa2;" glyph-name="cent" horiz-adv-x="383" d="M299 37T229 36L216 -119H178L170 -112L182 41Q115 56 77 115T39 266Q39 372 87 436T218 506L229 652H268L276 644L265 505Q319 498 362 471L350 420L341 419Q305 444 262 451L233 90H239Q299
90 357 125L365 121L358 73Q299 37 229 36ZM101 206T123 162T187 100L214 451Q161 443 131 396T101 272Q101 206 123 162Z" />
<glyph unicode="&#xa3;" glyph-name="sterling" horiz-adv-x="416" d="M379 -2L279 0H29L24 6L29 47Q100 62 100 154V291H29L25 297L30 335H100V431Q100 509 142 551T263 593Q309 593 371 576L366 515L361 510Q307 542 258 542Q166 542 166 441V335H293L297 330L293
291H165V161Q165 93 125 60V57H289L380 64L384 57L379 -2Z" />
<glyph unicode="&#xa4;" glyph-name="currency" horiz-adv-x="435" d="M398 501L331 438Q358 403 358 358Q358 314 332 280L400 218L401 209L366 173L358 174L295 241Q259 213 214 213Q172 213 137 240L74 172H66L29 207L30 215L97 278Q70 313 70 358Q70 400 96
436L28 499L29 507L62 543H71L135 475Q170 502 214 502Q256 502 291 477L354 544L363 545L398 510V501ZM174 455T146 427T117 358Q117 316 145 289T214 261Q256 261 284 288T312 358Q312 399 284 427T214 455Q174 455 146 427Z" />
<glyph unicode="&#xa5;" glyph-name="yen" horiz-adv-x="481" d="M464 156L461 121H270L272 0H207L210 121H25L21 126L24 161H210V172L166 254H25L21 259L24 294H144L35 497H106L117 469L239 249H244L376 467L390 497H460L341 294H460L464 290L461 254H317L271
176V161H460L464 156Z" />
<glyph unicode="&#xa6;" glyph-name="brokenbar" horiz-adv-x="314" d="M187 373L132 366L125 372V793L183 797L188 792L187 373ZM187 -259L132 -262L125 -254V153L180 160L187 151V-259Z" />
<glyph unicode="&#xa7;" glyph-name="section" horiz-adv-x="420" d="M380 223T355 188T287 132Q335 87 335 35Q335 -1 314 -32T254 -82T168 -101Q96 -101 35 -69L45 -1L54 5Q113 -49 176 -49Q217 -49 242 -27T267 23Q267 50 245 71T173 125Q132 152 107 172T63
220T45 283Q45 324 70 359T138 417Q91 461 91 511Q91 547 112 578T170 627T253 646Q311 646 363 625L352 557L341 554Q287 592 241 592Q205 592 182 571T158 522Q158 496 181 475T251 423Q293 396 318 376T362 327T380 264Q380 223 355 188ZM313 199T313 248Q313
279 289 303T212 362Q187 379 184 381Q112 347 112 297Q112 268 136 245T210 189L242 168Q313 199 313 248Z" />
<glyph unicode="&#xa8;" glyph-name="dieresis" horiz-adv-x="389" d="M137 627T148 616T160 584Q160 563 148 551T115 538Q73 538 73 582Q73 602 85 614T118 627Q137 627 148 616ZM287 627T298 616T310 584Q310 563 298 551T265 538Q223 538 223 582Q223 602
235 614T268 627Q287 627 298 616Z" />
<glyph unicode="&#xa9;" glyph-name="copyright" horiz-adv-x="685" d="M430 598T497 560T600 453T637 293Q637 202 601 133T497 26T342 -12Q254 -12 187 26T83 133T46 293Q46 384 83 453T187 560T342 598Q430 598 497 560ZM264 564T205 531T113 436T80 293Q80
212 112 151T204 56T342 22Q419 22 478 56T571 151T604 293Q604 374 571 435T479 530T342 564Q264 564 205 531ZM405 465T451 442L439 397L434 395Q400 418 355 418Q253 418 253 299Q253 173 355 173Q399 173 440 196L446 194L441 149Q398 126 351 126Q274 126
235 169T195 294Q195 376 237 420T357 465Q405 465 451 442Z" />
<glyph unicode="&#xaa;" glyph-name="ordfeminine" horiz-adv-x="320" d="M214 649T240 627T266 564L263 483Q260 435 260 413Q260 386 277 386Q289 386 296 392L302 388L294 348Q275 333 252 333Q230 333 219 344T203 381H200Q165 341 125 332Q82 334 58 357T34
421Q34 483 99 495L200 514L201 551Q201 598 153 598Q115 598 62 561L57 563L48 610Q107 649 165 649Q214 649 240 627ZM98 457T98 427Q98 407 109 395T139 383Q168 383 198 419L199 479L129 463Q98 457 98 427Z" />
<glyph unicode="&#xab;" glyph-name="guillemotleft" horiz-adv-x="398" d="M20 232L165 406L204 384L205 374L81 225L205 76L204 67L165 45L20 216V232ZM186 232L331 406L370 384L371 374L247 225L371 76L370 67L331 45L186 216V232Z" />
<glyph unicode="&#xac;" glyph-name="logicalnot" horiz-adv-x="480" d="M424 60L374 56L368 62V237H34L29 243L33 293H418L424 286V60Z" />
<glyph unicode="&#xad;" glyph-name="softhyphen" horiz-adv-x="307" d="M278 243L37 208L29 216V266L271 300L278 293V243Z" />
<glyph unicode="&#xae;" glyph-name="registered" horiz-adv-x="439" d="M302 702T351 653T401 521Q401 439 352 389T220 339Q138 339 88 389T38 521Q38 603 88 652T220 702Q302 702 351 653ZM291 365T333 408T376 521Q376 591 334 633T221 676Q150 676 108 634T65
521Q65 451 108 408T221 365Q291 365 333 408ZM292 528T253 508Q271 479 305 438L304 434Q291 430 269 428L265 431Q241 466 222 499H188V492L190 431H154L155 489L154 624H227Q292 624 292 567Q292 528 253 508ZM225 527Q255 537 255 564Q255 595 216 597L190
596L189 529L225 527Z" />
<glyph unicode="&#xaf;" glyph-name="overscore" horiz-adv-x="389" d="M337 582H54L48 588L53 634H336L342 629L337 582Z" />
<glyph unicode="&#xb0;" glyph-name="degree" horiz-adv-x="293" d="M200 647T236 611T273 523Q273 471 237 435T147 398Q94 398 57 434T20 523Q20 575 57 611T147 647Q200 647 236 611ZM111 608T86 583T60 523Q60 488 85 463T146 438Q182 438 207 463T233 523Q233
558 208 583T146 608Q111 608 86 583Z" />
<glyph unicode="&#xb1;" glyph-name="plusminus" horiz-adv-x="480" d="M268 293H443L449 287L444 237H268V60L218 56L212 62V237H37L31 243L36 293H212V470L262 475L268 468V293ZM444 -91H37L31 -85L36 -35H443L449 -41L444 -91Z" />
<glyph unicode="&#xb2;" glyph-name="twosuperior" horiz-adv-x="349" d="M223 705T253 682T284 619Q284 590 265 556T199 465L132 380L134 378H257L321 381L324 375L316 320L236 323H70L43 322L39 325V367L137 481Q178 531 195 557T212 604Q212 623 199 635T161
648Q136 648 110 635T63 597H54L43 650Q108 705 177 705Q223 705 253 682Z" />
<glyph unicode="&#xb3;" glyph-name="threesuperior" horiz-adv-x="308" d="M191 706T220 683T250 620Q250 593 235 568T188 529V525Q264 505 264 434Q264 382 221 351T106 319Q67 319 38 326L33 376L39 381Q75 372 107 372Q148 372 171 389T195 435Q195 490 125
492H82L78 497L79 544H109Q134 544 156 562T179 607Q179 628 165 639T127 651Q93 651 48 620H41L30 667Q81 706 142 706Q191 706 220 683Z" />
<glyph unicode="&#xb4;" glyph-name="acute" horiz-adv-x="389" d="M297 654L295 646Q196 569 125 519L116 520L94 552Q192 632 258 697L267 696L297 654Z" />
<glyph unicode="&#xb5;" glyph-name="mu" horiz-adv-x="511" d="M480 14Q453 -5 421 -5Q366 -5 353 60H346Q285 7 216 -6Q176 -6 147 11V-185H73L75 194L73 453L147 460V143Q148 105 169 83T227 61Q285 61 349 122V453L424 460L419 103Q418 53 447 53Q462 53 481
65L489 59L480 14Z" />
<glyph unicode="&#xb6;" glyph-name="paragraph" horiz-adv-x="485" d="M453 578H379L376 183L377 129Q377 63 341 14T218 -77L195 -41V-31Q251 4 276 40T302 124V170L301 579H242Q184 574 153 538T121 440Q121 379 155 337T255 275L230 230Q138 248 88 302T38
443Q38 537 95 589T257 641H453L459 633L453 578Z" />
<glyph unicode="&#xb7;" glyph-name="middot" horiz-adv-x="229" d="M136 291T148 279T160 246Q160 224 148 211T113 198Q69 198 69 244Q69 265 81 278T116 291Q136 291 148 279Z" />
<glyph unicode="&#xb8;" glyph-name="cedilla" horiz-adv-x="389" d="M234 -71Q272 -93 272 -127Q272 -156 250 -174T191 -193Q148 -193 119 -162L126 -122L131 -121Q159 -152 188 -152Q202 -152 210 -145T219 -125Q219 -112 198 -100L150 -71L175 19H221L200
-51L234 -71Z" />
<glyph unicode="&#xb9;" glyph-name="onesuperior" horiz-adv-x="258" d="M167 458L169 323H98L100 449V628L20 607L14 610V666L160 707L169 698L167 458Z" />
<glyph unicode="&#xba;" glyph-name="ordmasculine" horiz-adv-x="339" d="M239 649T273 609T308 494Q308 416 271 374T166 331Q101 331 66 371T31 486Q31 565 68 607T173 649Q239 649 273 609ZM99 598T99 493Q99 381 170 381Q243 381 243 487Q243 598 171 598Q99
598 99 493Z" />
<glyph unicode="&#xbb;" glyph-name="guillemotright" horiz-adv-x="391" d="M373 220L228 46L189 68L188 78L312 227L188 376L189 385L228 407L373 236V220ZM463 220L318 46L279 68L278 78L402 227L278 376L279 385L318 407L463 236V220Z" />
<glyph unicode="&#xbc;" glyph-name="onequarter" horiz-adv-x="702" d="M89 -91L54 -71L49 -59L520 678L555 658L561 644L89 -91ZM20 547L14 550V606L160 647L169 638L167 398L169 263H98L100 389V568L20 547ZM606 101L610 6L606 0L550 -3L546 1L547 101H433L382
98L377 105V149L541 379H606L605 153H663L668 147L664 98L606 101ZM548 153V300H543L439 153H548Z" />
<glyph unicode="&#xbd;" glyph-name="onehalf" horiz-adv-x="716" d="M561 644L89 -91L54 -71L49 -59L520 678L555 658L561 644ZM167 398L169 263H98L100 389V568L20 547L14 550V606L160 647L169 638L167 398ZM590 382T620 359T651 296Q651 267 632 233T566 142L499
57L501 55H624L688 58L691 52L683 -3L603 0H437L410 -1L406 2V44L504 158Q545 208 562 234T579 281Q579 300 566 312T528 325Q503 325 477 312T430 274H421L410 327Q475 382 544 382Q590 382 620 359Z" />
<glyph unicode="&#xbe;" glyph-name="threequarters" horiz-adv-x="739" d="M126 -91L91 -71L86 -59L557 678L592 658L598 644L126 -91ZM264 322T221 291T106 259Q67 259 38 266L33 316L39 321Q75 312 107 312Q148 312 171 329T195 375Q195 430 125 432H82L78
437L79 484H109Q134 484 156 502T179 547Q179 568 165 579T127 591Q93 591 48 560H41L30 607Q81 646 142 646Q191 646 220 623T250 560Q250 533 235 508T188 469V465Q264 445 264 374Q264 322 221 291ZM643 101L647 6L643 0L587 -3L583 1L584 101H470L419 98L414
105V149L578 379H643L642 153H700L705 147L701 98L643 101ZM585 153V300H580L476 153H585Z" />
<glyph unicode="&#xbf;" glyph-name="questiondown" horiz-adv-x="331" d="M130 -190T65 -150T0 -41Q0 41 84 93L167 147L169 151L163 247L219 254L226 247L234 132L229 122L133 65Q72 29 72 -29Q72 -129 269 -141L275 -149L260 -193L250 -198Q130 -190 65 -150ZM168
375T156 387T144 420Q144 442 156 455T191 468Q235 468 235 422Q235 401 223 388T188 375Q168 375 156 387Z" />
<glyph unicode="&#xc0;" glyph-name="Agrave" horiz-adv-x="578" d="M271 766T182 807L180 815L200 862L209 864Q298 812 401 761L387 725L377 721Q271 766 182 807ZM474 0L460 64L424 174L279 177L149 174L110 68L94 0H14L250 641H343L557 0H474ZM297 558H290L174
242L286 240L401 242L297 558Z" />
<glyph unicode="&#xc1;" glyph-name="Aacute" horiz-adv-x="578" d="M474 0L459 64L423 174L279 177L149 174L110 68L94 0H14L249 641H342L556 0H474ZM297 558H290L174 242L286 240L401 242L297 558ZM427 814L425 806Q336 765 230 720L220 724L206 760Q309 811
398 863L407 861L427 814Z" />
<glyph unicode="&#xc2;" glyph-name="Acircumflex" horiz-adv-x="578" d="M162 767Q229 813 278 858H301Q346 818 418 767L402 733H393Q337 767 290 799Q251 772 188 733H178L162 767ZM474 0L460 64L424 174L279 177L149 174L110 68L94 0H14L250 641H343L557 0H474ZM297
558H290L174 242L286 240L401 242L297 558Z" />
<glyph unicode="&#xc3;" glyph-name="Atilde" horiz-adv-x="578" d="M474 0L459 64L423 174L279 177L149 174L110 68L94 0H14L249 641H342L556 0H474ZM297 558H290L174 242L286 240L401 242L297 558ZM447 816L386 747L376 744Q354 746 292 764Q235 781 221 781Q214
781 206 775T181 751L165 734H156L132 760V767L193 836L203 839Q227 837 286 819Q348 803 358 803Q371 803 398 832L415 849H423L447 824V816Z" />
<glyph unicode="&#xc4;" glyph-name="Adieresis" horiz-adv-x="578" d="M191 744T180 756T169 788Q169 808 181 820T214 833Q234 833 245 822T256 791Q256 770 244 757T211 744Q191 744 180 756ZM348 744T337 756T326 788Q326 808 338 820T371 833Q391 833 402
822T413 791Q413 770 401 757T368 744Q348 744 337 756ZM474 0L460 64L424 174L279 177L149 174L110 68L94 0H14L250 641H343L557 0H474ZM297 558H290L174 242L286 240L401 242L297 558Z" />
<glyph unicode="&#xc5;" glyph-name="Aring" horiz-adv-x="578" d="M474 0L459 64L423 174L279 177L149 174L110 68L94 0H14L249 641H342L556 0H474ZM297 558H290L174 242L286 240L401 242L297 558ZM329 879T351 857T373 798Q373 759 349 737T287 714Q251 714
228 735T205 796Q205 834 228 856T290 879Q329 879 351 857ZM243 840T243 797Q243 775 255 764T289 752Q309 752 321 763T334 795Q334 840 288 840Q243 840 243 797Z" />
<glyph unicode="&#xc6;" glyph-name="AE" horiz-adv-x="807" d="M785 0H437L432 64L403 259L165 205L92 68L67 0H-16L322 641H695L701 633L693 571L531 575H434L469 338L684 383L691 377L695 319L478 276L509 65H622L786 70L792 62L785 0ZM358 558H352L205 281L393
322L358 558Z" />
<glyph unicode="&#xc7;" glyph-name="Ccedilla" horiz-adv-x="520" d="M408 61T483 122L493 117L486 41Q410 -2 330 -6L317 -51L351 -71Q389 -93 389 -127Q389 -156 367 -174T308 -193Q265 -193 236 -162L243 -122L248 -121Q276 -152 305 -152Q319 -152 327 -145T336
-125Q336 -112 315 -100L267 -71L285 -6Q167 2 103 85T38 315Q38 474 112 560T322 646Q423 646 497 598L481 525L472 523Q405 579 318 579Q223 579 172 514T121 322Q121 195 172 128T316 61Q408 61 483 122Z" />
<glyph unicode="&#xc8;" glyph-name="Egrave" horiz-adv-x="482" d="M255 766T166 807L164 815L184 862L193 864Q282 812 385 761L371 725L361 721Q255 766 166 807ZM459 62L453 0H93L98 193L93 641H454L459 633L452 571L301 574L174 572L172 362L292 360L398
363L403 356L397 294L285 296L171 295L170 200L173 67L301 66L454 70L459 62Z" />
<glyph unicode="&#xc9;" glyph-name="Eacute" horiz-adv-x="482" d="M453 0H93L98 193L93 641H454L458 633L452 571L301 574L174 572L172 362L292 360L398 363L404 356L397 294L285 296L171 295L170 200L173 67L300 66L454 70L459 62L453 0ZM412 814L410 806Q321
765 215 720L205 724L191 760Q294 811 383 863L392 861L412 814Z" />
<glyph unicode="&#xca;" glyph-name="Ecircumflex" horiz-adv-x="482" d="M146 767Q213 813 262 858H285Q330 818 402 767L386 733H377Q321 767 274 799Q235 772 172 733H162L146 767ZM459 62L453 0H93L98 193L93 641H454L459 633L452 571L301 574L174 572L172
362L292 360L398 363L403 356L397 294L285 296L171 295L170 200L173 67L301 66L454 70L459 62Z" />
<glyph unicode="&#xcb;" glyph-name="Edieresis" horiz-adv-x="482" d="M175 744T164 756T153 788Q153 808 165 820T198 833Q218 833 229 822T240 791Q240 770 228 757T195 744Q175 744 164 756ZM332 744T321 756T310 788Q310 808 322 820T355 833Q375 833 386
822T397 791Q397 770 385 757T352 744Q332 744 321 756ZM459 62L453 0H93L98 193L93 641H454L459 633L452 571L301 574L174 572L172 362L292 360L398 363L403 356L397 294L285 296L171 295L170 200L173 67L301 66L454 70L459 62Z" />
<glyph unicode="&#xcc;" glyph-name="Igrave" horiz-adv-x="268" d="M142 812T245 761L231 725L221 721Q115 766 26 807L24 815L44 862L53 864Q142 812 245 761ZM174 0H93L98 193L93 641H175L170 200L174 0Z" />
<glyph unicode="&#xcd;" glyph-name="Iacute" horiz-adv-x="268" d="M174 0H93L98 193L93 641H175L170 200L174 0ZM271 814L269 806Q180 765 74 720L64 724L50 760Q153 811 242 863L251 861L271 814Z" />
<glyph unicode="&#xce;" glyph-name="Icircumflex" horiz-adv-x="268" d="M73 813T122 858H145Q190 818 262 767L246 733H237Q181 767 134 799Q95 772 32 733H22L6 767Q73 813 122 858ZM174 0H93L98 193L93 641H175L170 200L174 0Z" />
<glyph unicode="&#xcf;" glyph-name="Idieresis" horiz-adv-x="268" d="M92 833T103 822T114 791Q114 770 102 757T69 744Q49 744 38 756T27 788Q27 808 39 820T72 833Q92 833 103 822ZM220 833T231 822T242 791Q242 770 230 757T197 744Q177 744 166 756T155
788Q155 808 167 820T200 833Q220 833 231 822ZM174 0H93L98 193L93 641H175L170 200L174 0Z" />
<glyph unicode="&#xd0;" glyph-name="Eth" horiz-adv-x="668" d="M483 645T556 567T630 343Q630 174 551 84T323 -6Q225 -6 115 0H114L120 193L119 296H16L12 303L15 353H118L114 641H115L346 645Q483 645 556 567ZM439 61T493 127T548 326Q548 578 341 578Q275
578 195 574L193 353H338L342 346L339 296H193L192 200L194 67Q266 61 336 61Q439 61 493 127Z" />
<glyph unicode="&#xd1;" glyph-name="Ntilde" horiz-adv-x="683" d="M587 0H503L172 513H166L165 211L168 0H93L98 190L95 641H179L509 128H516L515 637L591 643L585 188L587 0ZM496 816L435 747L425 744Q403 746 341 764Q284 781 270 781Q263 781 255 775T230
751L214 734H205L181 760V767L242 836L252 839Q276 837 335 819Q397 803 407 803Q420 803 447 832L464 849H472L496 824V816Z" />
<glyph unicode="&#xd2;" glyph-name="Ograve" horiz-adv-x="635" d="M326 812T429 761L415 725L405 721Q299 766 210 807L208 815L228 862L237 864Q326 812 429 761ZM457 647T527 566T598 333Q598 170 523 81T310 -8Q180 -8 109 76T38 315Q38 475 112 561T326
647Q457 647 527 566ZM120 581T120 325Q120 59 315 59Q515 59 515 319Q515 452 467 516T319 581Q120 581 120 325Z" />
<glyph unicode="&#xd3;" glyph-name="Oacute" horiz-adv-x="635" d="M457 647T527 566T598 333Q598 170 523 81T310 -8Q180 -8 109 76T38 315Q38 475 112 561T326 647Q457 647 527 566ZM120 581T120 325Q120 59 315 59Q515 59 515 319Q515 452 467 516T319 581Q120
581 120 325ZM456 814L454 806Q365 765 259 720L249 724L235 760Q338 811 427 863L436 861L456 814Z" />
<glyph unicode="&#xd4;" glyph-name="Ocircumflex" horiz-adv-x="635" d="M257 813T306 858H329Q374 818 446 767L430 733H421Q365 767 318 799Q279 772 216 733H206L190 767Q257 813 306 858ZM457 647T527 566T598 333Q598 170 523 81T310 -8Q180 -8 109 76T38
315Q38 475 112 561T326 647Q457 647 527 566ZM120 581T120 325Q120 59 315 59Q515 59 515 319Q515 452 467 516T319 581Q120 581 120 325Z" />
<glyph unicode="&#xd5;" glyph-name="Otilde" horiz-adv-x="635" d="M457 647T527 566T598 333Q598 170 523 81T310 -8Q180 -8 109 76T38 315Q38 475 112 561T326 647Q457 647 527 566ZM120 581T120 325Q120 59 315 59Q515 59 515 319Q515 452 467 516T319 581Q120
581 120 325ZM476 816L415 747L405 744Q383 746 321 764Q264 781 250 781Q243 781 235 775T210 751L194 734H185L161 760V767L222 836L232 839Q256 837 315 819Q377 803 387 803Q400 803 427 832L444 849H452L476 824V816Z" />
<glyph unicode="&#xd6;" glyph-name="Odieresis" horiz-adv-x="635" d="M263 833T274 822T285 791Q285 770 273 757T240 744Q220 744 209 756T198 788Q198 808 210 820T243 833Q263 833 274 822ZM420 833T431 822T442 791Q442 770 430 757T397 744Q377 744 366
756T355 788Q355 808 367 820T400 833Q420 833 431 822ZM457 647T527 566T598 333Q598 170 523 81T310 -8Q180 -8 109 76T38 315Q38 475 112 561T326 647Q457 647 527 566ZM120 581T120 325Q120 59 315 59Q515 59 515 319Q515 452 467 516T319 581Q120 581 120
325Z" />
<glyph unicode="&#xd7;" glyph-name="multiply" horiz-adv-x="480" d="M403 388L280 265L403 142V133L365 100L240 225L114 100L77 133V141L201 265L77 388V398L114 430L240 305L365 430L403 398V388Z" />
<glyph unicode="&#xd8;" glyph-name="Oslash" horiz-adv-x="635" d="M598 530T598 333Q598 170 523 81T310 -8Q249 -8 203 10L150 -102L101 -85L97 -77L151 38Q38 117 38 315Q38 475 112 561T326 647Q383 647 428 632L471 724L519 706L524 696L482 606Q598 530
598 333ZM120 173T183 108L398 568Q365 581 319 581Q120 581 120 325Q120 173 183 108ZM515 59T515 319Q515 473 449 536L232 74Q268 59 315 59Q515 59 515 319Z" />
<glyph unicode="&#xd9;" glyph-name="Ugrave" horiz-adv-x="626" d="M325 812T428 761L414 725L404 721Q298 766 209 807L207 815L227 862L236 864Q325 812 428 761ZM551 243Q553 124 490 59T308 -7Q194 -7 134 55T76 234L77 321L76 641H155L151 244Q149 63 314
63Q478 63 478 234L474 641H554L552 315L551 243Z" />
<glyph unicode="&#xda;" glyph-name="Uacute" horiz-adv-x="626" d="M552 243Q554 125 490 59T308 -7Q195 -7 135 56T76 234L77 321L76 641H155L152 244Q150 63 314 63Q480 63 478 234L474 641H554L553 315L552 243ZM453 814L451 806Q362 765 256 720L246 724L232
760Q335 811 424 863L433 861L453 814Z" />
<glyph unicode="&#xdb;" glyph-name="Ucircumflex" horiz-adv-x="626" d="M256 813T305 858H328Q373 818 445 767L429 733H420Q364 767 317 799Q278 772 215 733H205L189 767Q256 813 305 858ZM551 243Q553 124 490 59T308 -7Q194 -7 134 55T76 234L77 321L76
641H155L151 244Q149 63 314 63Q478 63 478 234L474 641H554L552 315L551 243Z" />
<glyph unicode="&#xdc;" glyph-name="Udieresis" horiz-adv-x="626" d="M261 833T272 822T283 791Q283 770 271 757T238 744Q218 744 207 756T196 788Q196 808 208 820T241 833Q261 833 272 822ZM418 833T429 822T440 791Q440 770 428 757T395 744Q375 744 364
756T353 788Q353 808 365 820T398 833Q418 833 429 822ZM551 243Q553 124 490 59T308 -7Q194 -7 134 55T76 234L77 321L76 641H155L151 244Q149 63 314 63Q478 63 478 234L474 641H554L552 315L551 243Z" />
<glyph unicode="&#xdd;" glyph-name="Yacute" horiz-adv-x="528" d="M295 0H214L220 187L219 230L15 641H101L114 605L254 317H262L415 603L430 641H515L293 230L292 187L295 0ZM395 814L393 806Q304 765 198 720L188 724L174 760Q277 811 366 863L375 861L395 814Z" />
<glyph unicode="&#xde;" glyph-name="Thorn" horiz-adv-x="525" d="M386 531T437 483T488 342Q488 234 426 175T248 116L172 115L174 0H94L97 193L94 641H175L174 530L291 531Q386 531 437 483ZM405 203T405 336Q405 460 273 466L173 463L171 200V182L277 180Q405
203 405 336Z" />
<glyph unicode="&#xdf;" glyph-name="germandbls" horiz-adv-x="558" d="M369 503T479 455L483 442L352 289Q440 260 479 225T519 133Q519 68 472 31T352 -6Q274 -6 211 28L219 103L227 107Q254 83 287 69T348 55Q389 55 414 77T439 134Q439 174 397 199T261 248L258
262L386 413Q329 442 278 442Q216 442 182 412T147 327L145 156L148 0H74L76 147L75 327Q75 407 131 455T284 503Q369 503 479 455Z" />
<glyph unicode="&#xe0;" glyph-name="agrave" horiz-adv-x="512" d="M260 609T161 686L159 694L189 736L198 737Q264 672 362 592L340 560L331 559Q260 609 161 686ZM403 0L391 54L365 128L246 129L140 128L113 58L99 0H25L217 498H303L479 0H403ZM261 425H255L164
189L252 188L344 189L261 425Z" />
<glyph unicode="&#xe1;" glyph-name="aacute" horiz-adv-x="512" d="M403 0L391 54L365 128L246 129L140 128L113 58L99 0H25L217 498H303L478 0H403ZM261 425H255L164 189L252 188L344 189L261 425ZM390 694L388 686Q289 609 218 559L209 560L187 592Q285 672
351 737L360 736L390 694Z" />
<glyph unicode="&#xe2;" glyph-name="acircumflex" horiz-adv-x="512" d="M128 595Q186 653 250 729H274Q336 652 395 595L373 563H364Q302 622 262 667Q224 625 160 563H150L128 595ZM403 0L391 54L365 128L246 129L140 128L113 58L99 0H25L217 498H303L479 0H403ZM261
425H255L164 189L252 188L344 189L261 425Z" />
<glyph unicode="&#xe3;" glyph-name="atilde" horiz-adv-x="512" d="M403 0L391 54L365 128L246 129L140 128L113 58L99 0H25L217 498H303L478 0H403ZM261 425H255L164 189L252 188L344 189L261 425ZM418 674L357 605L347 602Q325 604 263 622Q206 639 192 639Q185
639 177 633T152 609L136 592H127L103 618V625L164 694L174 697Q198 695 257 677Q319 661 329 661Q342 661 369 690L386 707H394L418 682V674Z" />
<glyph unicode="&#xe4;" glyph-name="adieresis" horiz-adv-x="512" d="M162 602T151 614T140 646Q140 666 152 678T185 691Q205 691 216 680T227 649Q227 628 215 615T182 602Q162 602 151 614ZM319 602T308 614T297 646Q297 666 309 678T342 691Q362 691 373
680T384 649Q384 628 372 615T339 602Q319 602 308 614ZM403 0L391 54L365 128L246 129L140 128L113 58L99 0H25L217 498H303L479 0H403ZM261 425H255L164 189L252 188L344 189L261 425Z" />
<glyph unicode="&#xe5;" glyph-name="aring" horiz-adv-x="512" d="M403 0L391 54L365 128L246 129L140 128L113 58L99 0H25L217 498H303L478 0H403ZM261 425H255L164 189L252 188L344 189L261 425ZM300 737T322 715T344 656Q344 617 320 595T258 572Q222 572
199 593T176 654Q176 692 199 714T261 737Q300 737 322 715ZM214 698T214 655Q214 633 226 622T260 610Q280 610 292 621T305 653Q305 698 259 698Q214 698 214 655Z" />
<glyph unicode="&#xe6;" glyph-name="ae" horiz-adv-x="700" d="M668 0H375L371 53L350 189L145 143L96 57L76 0H2L279 498H595L600 492L593 434L460 439H381L409 263L585 301L591 297L595 237L418 203L440 61H532L669 65L674 60L668 0ZM312 425H306L186 214L340
248L312 425Z" />
<glyph unicode="&#xe7;" glyph-name="ccedilla" horiz-adv-x="461" d="M350 57T414 103L423 100L416 31Q355 -2 290 -6L276 -51L310 -71Q348 -93 348 -127Q348 -156 326 -174T267 -193Q224 -193 195 -162L202 -122L207 -121Q235 -152 264 -152Q278 -152 286 -145T295
-125Q295 -112 274 -100L226 -71L244 -5Q148 3 97 68T45 246Q45 369 107 436T284 503Q367 503 428 468L414 399L405 396Q352 441 276 441Q202 441 163 394T123 252Q123 157 162 107T276 57Q350 57 414 103Z" />
<glyph unicode="&#xe8;" glyph-name="egrave" horiz-adv-x="435" d="M241 609T142 686L140 694L170 736L179 737Q245 672 343 592L321 560L312 559Q241 609 142 686ZM400 58L393 0H90L93 150L90 498H395L400 492L394 434L268 438L165 437L164 286L263 285L350
288L354 281L349 222L256 225L163 224L162 156L164 61L260 60L394 64L400 58Z" />
<glyph unicode="&#xe9;" glyph-name="eacute" horiz-adv-x="435" d="M400 58L393 0H90L93 150L90 498H395L400 492L394 434L268 438L164 437L163 286L262 285L349 288L354 281L348 222L256 225L163 224L162 156L163 61L261 60L394 64L400 58ZM372 694L370 686Q271
609 200 559L191 560L169 592Q267 672 333 737L342 736L372 694Z" />
<glyph unicode="&#xea;" glyph-name="ecircumflex" horiz-adv-x="435" d="M109 595Q166 652 231 729H255Q317 652 376 595L354 563H345Q283 622 243 667Q205 625 141 563H131L109 595ZM400 58L393 0H90L93 150L90 498H395L400 492L394 434L268 438L165 437L164
286L263 285L350 288L354 281L349 222L256 225L163 224L162 156L164 61L260 60L394 64L400 58Z" />
<glyph unicode="&#xeb;" glyph-name="edieresis" horiz-adv-x="435" d="M143 602T132 614T121 646Q121 666 133 678T166 691Q186 691 197 680T208 649Q208 628 196 615T163 602Q143 602 132 614ZM300 602T289 614T278 646Q278 666 290 678T323 691Q343 691 354
680T365 649Q365 628 353 615T320 602Q300 602 289 614ZM400 58L393 0H90L93 150L90 498H395L400 492L394 434L268 438L165 437L164 286L263 285L350 288L354 281L349 222L256 225L163 224L162 156L164 61L260 60L394 64L400 58Z" />
<glyph unicode="&#xec;" glyph-name="igrave" horiz-adv-x="259" d="M134 672T232 592L210 560L201 559Q130 609 31 686L29 694L59 736L68 737Q134 672 232 592ZM165 0H90L93 150L90 498H166L162 156L165 0Z" />
<glyph unicode="&#xed;" glyph-name="iacute" horiz-adv-x="259" d="M164 0H90L93 150L90 498H165L162 156L164 0ZM516 694L514 686Q415 609 344 559L335 560L313 592Q411 672 477 737L486 736L516 694Z" />
<glyph unicode="&#xee;" glyph-name="icircumflex" horiz-adv-x="259" d="M56 653T120 729H144Q206 652 265 595L243 563H234Q172 622 132 667Q94 625 30 563H20L-2 595Q56 653 120 729ZM165 0H90L93 150L90 498H166L162 156L165 0Z" />
<glyph unicode="&#xef;" glyph-name="idieresis" horiz-adv-x="259" d="M89 691T100 680T111 649Q111 628 99 615T66 602Q46 602 35 614T24 646Q24 666 36 678T69 691Q89 691 100 680ZM217 691T228 680T239 649Q239 628 227 615T194 602Q174 602 163 614T152 646Q152
666 164 678T197 691Q217 691 228 680ZM165 0H90L93 150L90 498H166L162 156L165 0Z" />
<glyph unicode="&#xf0;" glyph-name="eth" horiz-adv-x="584" d="M415 502T476 441T537 266Q537 136 471 66T281 -5Q186 -5 106 0L109 150L108 219H22L17 226L20 273H108L106 498L301 502Q415 502 476 441ZM460 56T460 251Q460 439 296 439Q247 439 181 435L179
273H307L311 266L308 219H179L178 156L180 62Q246 56 293 56Q460 56 460 251Z" />
<glyph unicode="&#xf1;" glyph-name="ntilde" horiz-adv-x="596" d="M504 0H424L162 380H157L156 166L158 0H90L93 147L91 498H170L432 118H439L437 495L506 500L503 149L504 0ZM454 674L393 605L383 602Q361 604 299 622Q242 639 228 639Q221 639 213 633T188
609L172 592H163L139 618V625L200 694L210 697Q234 695 293 677Q355 661 365 661Q378 661 405 690L422 707H430L454 682V674Z" />
<glyph unicode="&#xf2;" glyph-name="ograve" horiz-adv-x="557" d="M283 672T381 592L359 560L350 559Q279 609 180 686L178 694L208 736L217 737Q283 672 381 592ZM395 504T453 440T512 259Q512 132 450 63T271 -7Q163 -7 104 58T45 245Q45 369 107 436T286
504Q395 504 453 440ZM200 441T162 396T123 254Q123 150 161 103T277 56Q357 56 396 102T435 246Q435 347 397 394T279 441Q200 441 162 396Z" />
<glyph unicode="&#xf3;" glyph-name="oacute" horiz-adv-x="557" d="M395 504T453 440T512 259Q512 132 450 63T271 -7Q163 -7 104 58T45 245Q45 369 108 436T286 504Q395 504 453 440ZM200 441T162 396T123 254Q123 150 161 103T277 56Q357 56 396 102T435 246Q435
347 397 394T279 441Q200 441 162 396ZM409 694L407 686Q308 609 237 559L228 560L206 592Q304 672 370 737L379 736L409 694Z" />
<glyph unicode="&#xf4;" glyph-name="ocircumflex" horiz-adv-x="557" d="M205 653T269 729H293Q355 652 414 595L392 563H383Q321 622 281 667Q243 625 179 563H169L147 595Q205 653 269 729ZM395 504T453 440T512 259Q512 132 450 63T271 -7Q163 -7 104 58T45
245Q45 369 107 436T286 504Q395 504 453 440ZM200 441T162 396T123 254Q123 150 161 103T277 56Q357 56 396 102T435 246Q435 347 397 394T279 441Q200 441 162 396Z" />
<glyph unicode="&#xf5;" glyph-name="otilde" horiz-adv-x="557" d="M395 504T453 440T512 259Q512 132 450 63T271 -7Q163 -7 104 58T45 245Q45 369 108 436T286 504Q395 504 453 440ZM200 441T162 396T123 254Q123 150 161 103T277 56Q357 56 396 102T435 246Q435
347 397 394T279 441Q200 441 162 396ZM437 674L376 605L366 602Q344 604 282 622Q225 639 211 639Q204 639 196 633T171 609L155 592H146L122 618V625L183 694L193 697Q217 695 276 677Q338 661 348 661Q361 661 388 690L405 707H413L437 682V674Z" />
<glyph unicode="&#xf6;" glyph-name="odieresis" horiz-adv-x="557" d="M224 691T235 680T246 649Q246 628 234 615T201 602Q181 602 170 614T159 646Q159 666 171 678T204 691Q224 691 235 680ZM381 691T392 680T403 649Q403 628 391 615T358 602Q338 602 327
614T316 646Q316 666 328 678T361 691Q381 691 392 680ZM395 504T453 440T512 259Q512 132 450 63T271 -7Q163 -7 104 58T45 245Q45 369 107 436T286 504Q395 504 453 440ZM200 441T162 396T123 254Q123 150 161 103T277 56Q357 56 396 102T435 246Q435 347 397
394T279 441Q200 441 162 396Z" />
<glyph unicode="&#xf7;" glyph-name="divide" horiz-adv-x="480" d="M454 237H47L41 243L46 293H453L459 287L454 237ZM270 132T281 121T292 89Q292 69 281 57T248 44Q207 44 207 88Q207 107 218 119T251 132Q270 132 281 121ZM270 461T281 450T292 418Q292 398
281 386T248 373Q207 373 207 417Q207 436 218 448T251 461Q270 461 281 450Z" />
<glyph unicode="&#xf8;" glyph-name="oslash" horiz-adv-x="557" d="M512 410T512 259Q512 132 450 63T271 -7Q224 -7 188 5L135 -100L91 -79L88 -71L138 29Q45 93 45 245Q45 369 107 436T286 504Q333 504 370 492L408 568L449 548L454 539L419 469Q512 410 512
259ZM123 140T170 93L340 432Q313 441 279 441Q200 441 162 396T123 254Q123 140 170 93ZM357 56T396 102T435 246Q435 358 387 405L217 64Q246 56 277 56Q357 56 396 102Z" />
<glyph unicode="&#xf9;" glyph-name="ugrave" horiz-adv-x="549" d="M281 672T379 592L357 560L348 559Q277 609 178 686L176 694L206 736L215 737Q281 672 379 592ZM474 173Q476 88 423 41T272 -6Q175 -6 125 40T76 173L77 249L75 498H151L146 185Q144 58 275
58Q406 58 404 185L402 498H477L474 245V173Z" />
<glyph unicode="&#xfa;" glyph-name="uacute" horiz-adv-x="549" d="M475 173Q476 88 424 41T273 -6Q176 -6 125 40T76 173L77 249L76 498H151L147 185Q145 58 276 58Q407 58 405 185L402 498H478L475 245V173ZM406 694L404 686Q305 609 234 559L225 560L203 592Q301
672 367 737L376 736L406 694Z" />
<glyph unicode="&#xfb;" glyph-name="ucircumflex" horiz-adv-x="549" d="M202 652T267 729H291Q353 652 412 595L390 563H381Q319 622 279 667Q241 625 177 563H167L145 595Q202 652 267 729ZM474 173Q476 88 423 41T272 -6Q175 -6 125 40T76 173L77 249L75 498H151L146
185Q144 58 275 58Q406 58 404 185L402 498H477L474 245V173Z" />
<glyph unicode="&#xfc;" glyph-name="udieresis" horiz-adv-x="549" d="M222 691T233 680T244 649Q244 628 232 615T199 602Q179 602 168 614T157 646Q157 666 169 678T202 691Q222 691 233 680ZM379 691T390 680T401 649Q401 628 389 615T356 602Q336 602 325
614T314 646Q314 666 326 678T359 691Q379 691 390 680ZM474 173Q476 88 423 41T272 -6Q175 -6 125 40T76 173L77 249L75 498H151L146 185Q144 58 275 58Q406 58 404 185L402 498H477L474 245V173Z" />
<glyph unicode="&#xfd;" glyph-name="yacute" horiz-adv-x="473" d="M266 0H191L194 143V173L25 498H106L117 469L228 255H233L355 466L369 498H448L264 174L263 143L266 0ZM370 694L368 686Q269 609 198 559L189 560L167 592Q265 672 331 737L340 736L370 694Z" />
<glyph unicode="&#xfe;" glyph-name="thorn" horiz-adv-x="471" d="M343 416T385 378T427 266Q427 181 375 135T225 89L164 88L165 0H90L93 150L90 498H166L165 415L263 416Q343 416 385 378ZM348 166T348 260Q348 352 242 357L165 356L163 156V150L249 147Q348
166 348 260Z" />
<glyph unicode="&#xff;" glyph-name="ydieresis" horiz-adv-x="473" d="M142 602T131 614T120 646Q120 666 132 678T165 691Q185 691 196 680T207 649Q207 628 195 615T162 602Q142 602 131 614ZM299 602T288 614T277 646Q277 666 289 678T322 691Q342 691 353
680T364 649Q364 628 352 615T319 602Q299 602 288 614ZM266 0H191L194 143V172L25 498H106L116 469L227 255H233L355 466L369 498H447L264 174L263 143L266 0Z" />
<glyph unicode="&#x2013;" glyph-name="endash" horiz-adv-x="478" d="M490 228H-9L-15 234L-10 284H488L493 277L490 228Z" />
<glyph unicode="&#x2014;" glyph-name="emdash" horiz-adv-x="929" d="M941 228H-10L-16 234L-11 284H939L946 277L941 228Z" />
<glyph unicode="&#x2018;" glyph-name="quoteleft" horiz-adv-x="167" d="M32 454T32 509Q32 571 105 643L135 622L136 615Q94 570 94 531Q94 491 133 476V468Q114 450 86 434Q32 454 32 509Z" />
<glyph unicode="&#x2019;" glyph-name="quoteright" horiz-adv-x="167" d="M137 622T137 567Q137 505 64 433L34 454L33 461Q75 506 75 545Q75 585 36 600V608Q55 626 83 642Q137 622 137 567Z" />
<glyph unicode="&#x201a;" glyph-name="quotesinglbase" horiz-adv-x="229" d="M421 61T421 20Q421 -45 327 -114L300 -89V-82Q355 -39 355 6Q355 33 324 53V61Q352 80 379 87Q421 61 421 20Z" />
<glyph unicode="&#x201c;" glyph-name="quotedblleft" horiz-adv-x="289" d="M158 455T158 510Q158 572 231 644L261 623L262 616Q220 571 220 532Q220 492 259 477V469Q240 451 212 435Q158 455 158 510ZM27 455T27 510Q27 572 100 644L130 623L131 616Q89 571
89 532Q89 492 128 477V469Q109 451 81 435Q27 455 27 510Z" />
<glyph unicode="&#x201d;" glyph-name="quotedblright" horiz-adv-x="295" d="M262 622T262 567Q262 505 189 433L159 454L158 461Q200 506 200 545Q200 585 161 600V608Q180 626 208 642Q262 622 262 567ZM390 622T390 567Q390 505 317 433L287 454L286 461Q328
506 328 545Q328 585 289 600V608Q308 626 336 642Q390 622 390 567Z" />
<glyph unicode="&#x201e;" glyph-name="quotedblbase" horiz-adv-x="361" d="M295 61T295 20Q295 -45 201 -114L174 -89V-82Q229 -39 229 6Q229 33 198 53V61Q226 80 253 87Q295 61 295 20ZM421 61T421 20Q421 -45 327 -114L300 -89V-82Q355 -39 355 6Q355 33
324 53V61Q352 80 379 87Q421 61 421 20Z" />
<glyph unicode="&#x2022;" glyph-name="bullet" horiz-adv-x="255" d="M152 314T165 301T179 263Q179 239 165 224T126 209Q77 209 77 261Q77 285 91 299T129 314Q152 314 165 301Z" />
<glyph unicode="&#x2039;" glyph-name="guilsinglleft" horiz-adv-x="229" d="M21 232L166 406L205 384L206 374L82 225L206 76L205 67L166 45L21 216V232Z" />
<glyph unicode="&#x203a;" glyph-name="guilsinglright" horiz-adv-x="235" d="M212 220L67 46L28 68L27 78L151 227L27 376L28 385L67 407L212 236V220Z" />
</font>
</defs>
</svg>
